<?xml version="1.0" standalone="no"?>
<!DOCTYPE svg PUBLIC "-//W3C//DTD SVG 1.1//EN" "http://www.w3.org/Graphics/SVG/1.1/DTD/svg11.dtd" >
<svg xmlns="http://www.w3.org/2000/svg">
<metadata></metadata>
<defs>
<font id="sofia_prolight" horiz-adv-x="1259" >
<font-face units-per-em="2048" ascent="1638" descent="-410" />
<missing-glyph horiz-adv-x="536" />
<glyph unicode="&#xfb01;" horiz-adv-x="1118" d="M954 956v-956h-131v844h-456v-844h-131v844h-189v112h189v125q0 93 19 166.5t59 130t107.5 87t158.5 30.5h65v-125h-47q-126 0 -178.5 -73t-52.5 -201v-140h587zM889 1403q43 0 72.5 -26.5t29.5 -67.5q0 -39 -29.5 -65.5t-72.5 -26.5q-41 0 -71 26.5t-30 65.5q0 40 30 67 t71 27z" />
<glyph unicode="&#xfb02;" horiz-adv-x="1120" d="M956 1495v-1495h-131v1370h-227q-126 0 -178.5 -73t-52.5 -201v-140h243v-112h-243v-844h-131v844h-189v112h189v125q0 93 19 166.5t59 130t107.5 87t158.5 30.5h376z" />
<glyph unicode="&#xfb03;" horiz-adv-x="1789" d="M1626 956v-956h-131v844h-457v-844h-131v844h-540v-844h-131v844h-189v112h189v125q0 93 19 166.5t59 130t107.5 87t158.5 30.5h90v-125h-72q-126 0 -178.5 -73t-52.5 -201v-140h540v125q0 93 19 166.5t59 130t107.5 87t158.5 30.5h58v-125h-39q-232 0 -232 -274v-140 h588zM1561 1403q43 0 72.5 -26.5t29.5 -67.5q0 -39 -29.5 -65.5t-72.5 -26.5q-41 0 -71 26.5t-30 65.5q0 40 30 67t71 27z" />
<glyph unicode="&#xfb04;" horiz-adv-x="1792" d="M1628 1495v-1495h-131v1370h-227q-232 0 -232 -274v-140h244v-112h-244v-844h-131v844h-540v-844h-131v844h-189v112h189v125q0 93 19 166.5t59 130t107.5 87t158.5 30.5h90v-125h-72q-126 0 -178.5 -73t-52.5 -201v-140h540v125q0 93 19 166.5t59 130t107.5 87 t158.5 30.5h377z" />
<glyph horiz-adv-x="0" />
<glyph horiz-adv-x="682" />
<glyph unicode=" "  horiz-adv-x="536" />
<glyph unicode="&#x09;" horiz-adv-x="536" />
<glyph unicode="&#xa0;" horiz-adv-x="536" />
<glyph unicode="!" horiz-adv-x="512" d="M203 371l-13 1040h132l-11 -1040h-108zM254 -14q-42 0 -72 27.5t-30 68.5t30 69.5t72 28.5q44 0 75 -28.5t31 -69.5t-30.5 -68.5t-75.5 -27.5z" />
<glyph unicode="&#x22;" horiz-adv-x="659" d="M158 858l-8 553h114l-8 -553h-98zM403 858l-8 553h117l-10 -553h-99z" />
<glyph unicode="#" horiz-adv-x="1384" d="M217 0l100 358h-249l34 125h248l119 437h-246l33 124h250l100 367h123l-100 -367h315l100 367h123l-100 -367h250l-35 -124h-250l-121 -437h250l-33 -125h-249l-103 -358h-123l101 358h-314l-102 -358h-121zM473 483h315l119 437h-313z" />
<glyph unicode="$" horiz-adv-x="1050" d="M965 412q0 -67 -27 -131t-76.5 -117t-127.5 -87.5t-173 -39.5v-187h-98v191q-158 21 -259.5 125.5t-107.5 236.5h133q8 -99 91 -172t210 -73q142 0 220.5 74.5t78.5 173.5q0 90 -64.5 147.5t-178.5 85.5l-174 43q-308 72 -308 319q0 140 104.5 235.5t254.5 111.5v182h98 v-180q155 -12 255 -108t104 -241h-134q-4 103 -80 167.5t-192 64.5q-112 0 -193 -66.5t-81 -165.5q0 -154 204 -202l172 -43q163 -39 256 -125t93 -219z" />
<glyph unicode="%" horiz-adv-x="1243" d="M334 854q-110 0 -185 76t-75 186q0 109 75 185.5t185 76.5q109 0 185.5 -76.5t76.5 -185.5q0 -110 -76.5 -186t-185.5 -76zM238 0l655 1348h98l-653 -1348h-100zM334 956q67 0 114.5 46t47.5 114q0 66 -48 113t-114 47q-67 0 -113.5 -47t-46.5 -113q0 -69 46 -114.5 t114 -45.5zM907 -20q-110 0 -185 76t-75 186q0 109 75 185.5t185 76.5q109 0 186.5 -76.5t77.5 -185.5q0 -110 -77.5 -186t-186.5 -76zM907 82q67 0 114.5 46.5t47.5 113.5q0 66 -48 112.5t-114 46.5q-67 0 -112 -46t-45 -113q0 -68 45 -114t112 -46z" />
<glyph unicode="&#x26;" horiz-adv-x="1312" d="M1210 102h31v-122h-33q-104 0 -181 49.5t-95 140.5q-50 -93 -154.5 -141.5t-222.5 -48.5q-132 0 -236 60.5t-158.5 160t-54.5 217.5q0 123 66 223.5t180 153.5q-69 44 -110 122.5t-41 165.5q0 140 104 242t260 102q101 0 184.5 -44t133.5 -121l-107 -70q-35 53 -90 80.5 t-121 27.5q-103 0 -170 -64.5t-67 -160.5q0 -98 67 -166.5t185 -68.5h303v176h131v-178h186v-109h-186v-305q0 -55 4 -97t16.5 -86.5t33 -73t57 -47t85.5 -18.5zM559 106q140 0 229.5 86.5t94.5 217.5v319h-297q-163 0 -258 -86.5t-95 -220.5q0 -133 89 -224.5t237 -91.5z " />
<glyph unicode="'" horiz-adv-x="413" d="M158 858l-8 553h114l-8 -553h-98z" />
<glyph unicode="(" horiz-adv-x="690" d="M645 -328q-242 8 -388 253t-146 657q0 414 146 659.5t388 253.5v-111q-184 -8 -296.5 -226.5t-112.5 -575.5t112.5 -575t296.5 -224v-111z" />
<glyph unicode=")" horiz-adv-x="690" d="M45 -328v111q184 6 297 224t113 575t-113 575.5t-297 226.5v111q242 -8 388.5 -253.5t146.5 -659.5q0 -412 -146.5 -657t-388.5 -253z" />
<glyph unicode="*" horiz-adv-x="942" d="M850 1116l-311 -78l192 -256l-72 -53l-188 264l-186 -264l-74 53l192 256l-311 78l25 88l313 -90l-4 328h92l-6 -328l313 90z" />
<glyph unicode="+" horiz-adv-x="1011" d="M918 596v-127h-349v-350h-127v350h-348v127h348v348h127v-348h349z" />
<glyph unicode="," horiz-adv-x="450" d="M94 -348l-90 31q89 126 130 263t28 306h131q12 -174 -41 -333t-158 -267z" />
<glyph unicode="-" horiz-adv-x="978" d="M145 408v127h689v-127h-689z" />
<glyph unicode="." horiz-adv-x="475" d="M236 -20q-42 0 -72.5 27.5t-30.5 68.5q0 42 30.5 70t72.5 28q45 0 75.5 -28t30.5 -70q0 -41 -30.5 -68.5t-75.5 -27.5z" />
<glyph unicode="/" horiz-adv-x="944" d="M61 0l691 1411h133l-692 -1411h-132z" />
<glyph unicode="0" horiz-adv-x="1218" d="M610 -20q-80 0 -146.5 18.5t-115.5 51.5t-87 82.5t-62.5 107t-40.5 129t-22.5 145t-6.5 158.5q0 121 13 219.5t46.5 188.5t87 151t138.5 97t196 36t195.5 -36t137.5 -96.5t86 -151t45.5 -189t12.5 -219.5t-12.5 -219t-45.5 -188.5t-86 -151.5t-137.5 -97t-195.5 -36z M610 104q81 0 143 30t100.5 80.5t62.5 125t33 154.5t9 178q0 82 -6.5 150.5t-21.5 134.5t-41.5 115.5t-64 88t-92 58.5t-122.5 20q-82 0 -144 -29.5t-100.5 -79.5t-63 -124.5t-33.5 -154.5t-9 -179q0 -98 9 -178t33.5 -154.5t63 -125t100.5 -80.5t144 -30z" />
<glyph unicode="1" horiz-adv-x="686" d="M471 1364h6v-1364h-129v1169l-293 -125v130z" />
<glyph unicode="2" horiz-adv-x="1034" d="M326 127h596v-127h-818v55l533 641q137 168 137 285q0 116 -76 187t-198 71q-113 0 -190.5 -56.5t-96.5 -152.5l-117 29q25 141 134.5 223t269.5 82q181 0 293 -105t112 -278q0 -81 -41.5 -172.5t-109.5 -171.5z" />
<glyph unicode="3" horiz-adv-x="1085" d="M723 725q110 -31 179 -124t69 -218q0 -180 -131.5 -290.5t-337.5 -110.5q-140 0 -254.5 72t-171.5 196l108 59q46 -94 130 -148.5t184 -54.5q148 0 245 75.5t97 197.5q0 126 -87.5 205.5t-220.5 79.5h-137v114h131q110 0 178 64.5t68 167.5t-73 166t-191 63 q-80 0 -153 -39t-111 -102l-94 73q51 87 149.5 140t210.5 53q177 0 285 -97t108 -255q0 -95 -48.5 -172t-131.5 -115z" />
<glyph unicode="4" horiz-adv-x="1150" d="M1069 410v-125h-201v-285h-131v285h-704v30l807 1033h28v-938h201zM250 410h487v624z" />
<glyph unicode="5" horiz-adv-x="1122" d="M594 844q189 0 309.5 -115.5t120.5 -304.5q0 -198 -131 -321t-332 -123q-158 0 -280 76.5t-189 205.5l109 60q52 -99 143 -158.5t209 -59.5q148 0 244 88.5t96 229.5q0 136 -91.5 220.5t-230.5 84.5q-165 0 -356 -115l-76 68l119 668h676v-125h-569l-89 -471 q155 92 318 92z" />
<glyph unicode="6" horiz-adv-x="1183" d="M621 854q195 0 321.5 -127.5t126.5 -306.5q0 -82 -29.5 -159t-85.5 -140.5t-146.5 -102t-201.5 -38.5q-234 0 -356.5 152t-122.5 443q0 69 5 135.5t20 147t38.5 150t64.5 136.5t94 114.5t130.5 76.5t171.5 29q288 0 400 -256l-119 -49q-81 180 -283 180 q-78 0 -143.5 -33.5t-109.5 -89.5t-73.5 -130t-42 -154t-10.5 -162q48 82 143.5 133t207.5 51zM598 106q149 0 242.5 92t93.5 224q0 129 -90 217.5t-228 89.5q-48 0 -95 -10.5t-91.5 -33.5t-79 -55t-56.5 -79t-24 -102q0 -159 94.5 -250t233.5 -93z" />
<glyph unicode="7" horiz-adv-x="1007" d="M98 1348h885v-15l-733 -1333h-154l672 1223h-670v125z" />
<glyph unicode="8" horiz-adv-x="1187" d="M805 782q125 -44 200.5 -148.5t75.5 -234.5q0 -181 -138 -300t-349 -119q-212 0 -350 118.5t-138 298.5q0 132 75 236.5t202 148.5q-73 39 -114.5 106t-41.5 154q0 138 103 230t264 92t265 -92t104 -230q0 -87 -42 -154t-116 -106zM594 1241q-98 0 -165 -60.5t-67 -148.5 q0 -87 65.5 -146.5t166.5 -60.5q100 2 166.5 60.5t66.5 146.5t-67.5 148.5t-165.5 60.5zM594 104q151 0 250.5 87.5t99.5 214.5q0 130 -101.5 219.5t-248.5 89.5q-150 -3 -250 -90.5t-100 -216.5t100.5 -216.5t249.5 -87.5z" />
<glyph unicode="9" horiz-adv-x="1183" d="M580 1364q228 0 353.5 -160.5t125.5 -433.5q0 -69 -5 -136t-20.5 -147.5t-39.5 -150t-65 -136.5t-94.5 -114.5t-131 -76.5t-171.5 -29q-285 0 -397 256l119 49q82 -181 281 -181q78 0 143 33t109 89t74 129t43 153t11 162q-49 -83 -145 -132t-205 -49q-130 0 -234 60 t-160 159.5t-56 217.5q0 81 29.5 157.5t85.5 140t147 102t203 38.5zM567 614q60 0 119 17.5t109.5 51t83 89t34.5 123.5q0 159 -94 250.5t-233 93.5q-148 0 -242 -92.5t-94 -224.5q0 -128 89.5 -216.5t227.5 -91.5z" />
<glyph unicode=":" horiz-adv-x="497" d="M250 782q-43 0 -74 28t-31 69q0 42 31 70t74 28q42 0 72 -28t30 -70q0 -41 -30 -69t-72 -28zM250 -20q-43 0 -74 27.5t-31 68.5q0 42 31 70t74 28q42 0 72 -28t30 -70q0 -41 -30 -68.5t-72 -27.5z" />
<glyph unicode=";" horiz-adv-x="518" d="M264 977q43 0 74 -28t31 -70q0 -41 -31 -69t-74 -28q-42 0 -72 28t-30 69q0 42 30 70t72 28zM145 -348l-90 31q89 126 130 263t28 306h131q12 -174 -41 -333t-158 -267z" />
<glyph unicode="&#x3c;" horiz-adv-x="1245" d="M1116 1001v-141l-864 -323l864 -326v-137l-1040 395v133z" />
<glyph unicode="=" horiz-adv-x="1236" d="M154 651v127h929v-127h-929zM154 238v127h929v-127h-929z" />
<glyph unicode="&#x3e;" horiz-adv-x="1243" d="M129 1001l1038 -399v-133l-1038 -397v139l862 326l-862 323v141z" />
<glyph unicode="?" horiz-adv-x="956" d="M287 371v100q-3 120 44 183.5t140 99.5l84 28q85 30 141 96t56 158q0 121 -78.5 194t-192.5 73q-109 0 -189 -71t-89 -192h-127q7 173 125 280t280 107q167 0 283.5 -108t116.5 -283q0 -139 -82 -239.5t-207 -137.5q-45 -14 -71.5 -25.5t-53.5 -32.5t-39 -53t-12 -77 l-2 -100h-127zM350 -14q-43 0 -73.5 27.5t-30.5 68.5q0 42 30.5 70t73.5 28t74 -28t31 -70q0 -41 -31 -68.5t-74 -27.5z" />
<glyph unicode="@" horiz-adv-x="2039" d="M991 -391q-185 0 -350.5 70.5t-284 191.5t-187.5 288t-69 353q0 185 69.5 352.5t188 290t284.5 194.5t351 72q149 0 290 -42t257.5 -121t204 -185t136 -241t48.5 -283q0 -76 -12 -152.5t-40.5 -155t-70.5 -138t-108.5 -97t-147.5 -37.5q-57 0 -104.5 14t-88.5 44.5 t-64 87t-23 133.5v274q0 125 -86.5 211t-210.5 86t-210.5 -86t-86.5 -211q0 -122 87 -208.5t210 -86.5q109 0 201 82v-127q-92 -63 -201 -63q-167 0 -286.5 118.5t-119.5 284.5q0 170 119 289t287 119q164 0 283 -116t122 -282v-292q0 -90 49 -127t123 -37q61 0 109 31.5 t77 80.5t48.5 113.5t27 125.5t7.5 122q0 162 -67 305t-179.5 243t-263.5 158t-316 58q-217 0 -397.5 -108t-283.5 -292t-103 -401q0 -218 103 -400.5t283 -288.5t396 -106h58v-108h-58z" />
<glyph unicode="A" horiz-adv-x="1247" d="M1092 0l-142 375h-651l-141 -375h-144l539 1411h143l537 -1411h-141zM346 496h557l-278 735z" />
<glyph unicode="B" horiz-adv-x="1286" d="M909 752q86 -22 147 -82t88 -132t27 -149q0 -102 -46.5 -189.5t-139.5 -143.5t-213 -56h-563v1411h512q172 0 273.5 -92.5t101.5 -255.5q0 -103 -47 -188t-140 -123zM719 1284h-375v-479h401q101 0 158.5 70t57.5 178q0 107 -65 169t-177 62zM750 127q131 0 208.5 79 t77.5 193q0 119 -80 203t-213 84h-399v-559h406z" />
<glyph unicode="C" horiz-adv-x="1388" d="M815 -20q-145 0 -276.5 57t-226.5 154t-150.5 230.5t-55.5 280.5t55.5 281t150 230.5t226.5 154t277 57.5q147 0 276.5 -56.5t223.5 -156.5l-96 -86q-76 81 -181.5 126.5t-222.5 45.5q-158 0 -290 -80t-207.5 -217t-75.5 -299t75.5 -299t207.5 -217t290 -80q116 0 221 46 t183 127l96 -86q-94 -100 -223.5 -156.5t-276.5 -56.5z" />
<glyph unicode="D" horiz-adv-x="1486" d="M209 0v1411h534q195 0 339.5 -94t218 -253.5t73.5 -361.5q0 -150 -43 -278t-122.5 -222.5t-199.5 -148t-266 -53.5h-534zM344 127h399q157 0 270.5 76.5t169.5 205t56 293.5q0 166 -56 296.5t-169.5 208t-270.5 77.5h-399v-1157z" />
<glyph unicode="E" horiz-adv-x="1142" d="M342 127h694v-127h-827v1411h805v-127h-672v-528h586v-127h-586v-502z" />
<glyph unicode="F" horiz-adv-x="1062" d="M1004 1284h-660v-528h522v-127h-522v-629h-135v1411h795v-127z" />
<glyph unicode="G" horiz-adv-x="1548" d="M821 -20q-148 0 -280 57t-226.5 154t-150 230.5t-55.5 280.5q0 148 55.5 282t150 231t226.5 154.5t280 57.5q126 0 242 -43t207 -120l-90 -93q-159 129 -359 129q-120 0 -227.5 -47.5t-184 -128t-121 -191t-44.5 -231.5t44.5 -231t121 -190t184 -127.5t227.5 -47.5 q204 0 343.5 112.5t166.5 313.5l2 31h-424v121h572q-2 -175 -51.5 -310.5t-137.5 -221t-207 -129t-264 -43.5z" />
<glyph unicode="H" horiz-adv-x="1464" d="M1120 1411h135v-1411h-135v641h-776v-641h-135v1411h135v-649h776v649z" />
<glyph unicode="I" horiz-adv-x="550" d="M209 0v1411h135v-1411h-135z" />
<glyph unicode="J" horiz-adv-x="567" d="M-61 -477q-31 0 -127 14l14 129q46 -12 113 -12q76 0 132.5 24.5t89.5 69t48.5 100t15.5 123.5v1440h135v-1440q0 -95 -23 -173.5t-71.5 -141.5t-132 -98t-194.5 -35z" />
<glyph unicode="K" horiz-adv-x="1120" d="M1141 0h-183l-616 621v-621h-133v1411h133v-663l528 663h168l-577 -723z" />
<glyph unicode="L" horiz-adv-x="991" d="M209 0v1411h135v-1284h600v-127h-735z" />
<glyph unicode="M" horiz-adv-x="1939" d="M1815 0h-134l-145 1169l-502 -1024h-125l-506 1029l-145 -1174h-131l174 1411h127l543 -1120l542 1120h125z" />
<glyph unicode="N" horiz-adv-x="1413" d="M1071 1411h135v-1411h-139l-723 1176v-1176h-135v1411h141l721 -1173v1173z" />
<glyph unicode="O" horiz-adv-x="1640" d="M819 -20q-148 0 -280.5 57t-227 154t-150 230.5t-55.5 280.5q0 198 94 364.5t258 263.5t361 97t361 -97t258 -263.5t94 -364.5q0 -147 -55.5 -280.5t-150 -230.5t-227 -154t-280.5 -57zM819 106q160 0 293 80t209 217t76 299t-76 299.5t-209 218t-293 80.5 q-120 0 -227.5 -47.5t-184 -128t-121 -191t-44.5 -231.5t44.5 -231t121 -190t184 -127.5t227.5 -47.5z" />
<glyph unicode="P" horiz-adv-x="1243" d="M764 1411q104 0 184 -36t126.5 -98t69.5 -136.5t23 -159.5t-23 -160t-70 -136.5t-128 -97.5t-188 -36h-414v-551h-135v1411h555zM752 678q73 0 129 25.5t88 69t47.5 96t15.5 112.5q0 59 -15 111.5t-46 96.5t-85 69.5t-124 25.5h-418v-606h408z" />
<glyph unicode="Q" horiz-adv-x="1640" d="M1532 702q0 -197 -95 -363t-257 -261l157 -250l-106 -64l-162 261q-121 -45 -250 -45q-148 0 -280.5 57t-227 154t-150 230.5t-55.5 280.5q0 198 94 364.5t258 263.5t361 97t361 -97t258 -263.5t94 -364.5zM819 106q89 0 178 29l-159 256l104 66l170 -271 q131 79 208 216.5t77 299.5t-76 299.5t-209 218t-293 80.5q-120 0 -227.5 -47.5t-184 -128t-121 -191t-44.5 -231.5t44.5 -231t121 -190t184 -127.5t227.5 -47.5z" />
<glyph unicode="R" horiz-adv-x="1257" d="M1141 981q0 -66 -13.5 -126.5t-44.5 -115.5t-76.5 -95t-114 -64.5t-153.5 -26.5l391 -553h-163l-387 553h-236v-553h-135v1411h524q86 0 155.5 -24t116 -64.5t77.5 -96.5t45 -117t14 -128zM344 1284v-606h356q157 0 231.5 83.5t74.5 219.5q0 132 -70.5 217.5t-200.5 85.5 h-391z" />
<glyph unicode="S" horiz-adv-x="1159" d="M586 -20q-100 0 -188 33.5t-148.5 89t-96.5 127.5t-40 149h133q11 -111 104 -192t236 -81q158 0 248 84t90 193q0 192 -277 262l-190 45q-334 80 -334 352q0 113 63.5 202t165.5 136t219 47q184 0 308.5 -105t130.5 -278h-136q-6 116 -92 186t-215 70q-125 0 -217 -72 t-92 -186q0 -31 7 -57.5t28.5 -61t71.5 -63t124 -45.5l191 -45q176 -44 277.5 -139t101.5 -242q0 -60 -19 -118.5t-58.5 -111t-95 -92.5t-133 -63.5t-167.5 -23.5z" />
<glyph unicode="T" horiz-adv-x="1120" d="M1077 1411v-127h-450v-1284h-135v1284h-449v127h1034z" />
<glyph unicode="U" horiz-adv-x="1388" d="M694 -20q-102 0 -193.5 34.5t-160.5 96.5t-109.5 156.5t-40.5 207.5v936h136v-936q0 -171 105.5 -268.5t262.5 -97.5q102 0 184.5 41.5t133.5 126t51 198.5v936h135v-936q0 -113 -40.5 -207.5t-109.5 -156.5t-160.5 -96.5t-193.5 -34.5z" />
<glyph unicode="V" horiz-adv-x="1114" d="M911 1411h140l-422 -1411h-142l-428 1411h142l356 -1198z" />
<glyph unicode="W" horiz-adv-x="1853" d="M1669 1411h143l-477 -1411h-127l-282 979l-281 -979h-127l-477 1411h143l396 -1200l288 995h117l289 -1001z" />
<glyph unicode="X" horiz-adv-x="1204" d="M1186 0h-162l-422 649l-422 -649h-160l502 760l-438 651h162l356 -543l356 543h162l-438 -651z" />
<glyph unicode="Y" horiz-adv-x="1232" d="M1059 1411h162l-539 -749v-662h-135v662l-531 749h160l440 -618z" />
<glyph unicode="Z" horiz-adv-x="1122" d="M1034 1411v-111l-778 -1173h778v-127h-952v109l778 1175h-762v127h936z" />
<glyph unicode="[" horiz-adv-x="604" d="M543 1378h-221v-1589h221v-117h-350v1823h350v-117z" />
<glyph unicode="\" horiz-adv-x="944" d="M752 0l-693 1411h134l690 -1411h-131z" />
<glyph unicode="]" horiz-adv-x="604" d="M61 1495h351v-1823h-351v117h222v1589h-222v117z" />
<glyph unicode="^" horiz-adv-x="964" d="M874 608h-131l-260 649l-260 -649h-133l332 803h123z" />
<glyph unicode="_" horiz-adv-x="1333" d="M117 -178v121h1100v-121h-1100z" />
<glyph unicode="`" horiz-adv-x="966" d="M477 1120l-227 314h160l194 -314h-127z" />
<glyph unicode="a" d="M965 956h131v-956h-131v186q-53 -97 -156 -151.5t-225 -54.5q-132 0 -243 63.5t-177 178.5t-66 257q0 215 141 356.5t345 141.5q123 0 225 -54.5t156 -150.5v184zM594 104q153 0 262 104.5t109 266.5q0 111 -53.5 199t-137.5 133t-180 45q-152 0 -258.5 -107t-106.5 -264 q0 -159 106.5 -268t258.5 -109z" />
<glyph unicode="b" d="M676 977q99 0 188.5 -37.5t154.5 -102t103.5 -158t38.5 -200.5q0 -142 -65 -257t-176 -178.5t-244 -63.5q-122 0 -225.5 55.5t-155.5 152.5v-188h-131v1495h131v-725q53 97 155.5 152t225.5 55zM666 104q153 0 259.5 109t106.5 268q0 157 -106.5 264t-259.5 107 q-96 0 -180 -45t-137.5 -133t-53.5 -199q0 -162 109 -266.5t262 -104.5z" />
<glyph unicode="c" horiz-adv-x="1026" d="M604 -18q-137 0 -251.5 60t-184.5 175t-70 262t70 262t184.5 175.5t251.5 60.5q203 0 344 -131l-82 -90q-107 96 -258 96q-160 0 -269.5 -104t-109.5 -269q0 -164 109.5 -268.5t269.5 -104.5q152 0 258 95l82 -88q-137 -131 -344 -131z" />
<glyph unicode="d" d="M965 1495h131v-1495h-131v186q-53 -97 -156 -151.5t-225 -54.5q-132 0 -243 63.5t-177 178.5t-66 257q0 215 141 356.5t345 141.5q123 0 225 -54.5t156 -150.5v723zM594 104q153 0 262 104.5t109 266.5q0 111 -53.5 199t-137.5 133t-180 45q-152 0 -258.5 -107 t-106.5 -264q0 -159 106.5 -268t258.5 -109z" />
<glyph unicode="e" horiz-adv-x="1148" d="M1057 481q0 -39 -2 -57h-824q17 -151 114.5 -235.5t244.5 -84.5q99 0 181.5 43t129.5 121l113 -49q-62 -114 -176.5 -176.5t-251.5 -62.5q-135 0 -245.5 61t-176.5 176.5t-66 263.5t66 262t176.5 174t245.5 60q207 0 339 -136t132 -360zM233 537h695q-13 147 -106.5 231 t-235.5 84q-144 0 -239.5 -82t-113.5 -233z" />
<glyph unicode="f" horiz-adv-x="645" d="M598 1370q-126 0 -178.5 -73t-52.5 -201v-140h243v-112h-243v-844h-131v844h-189v112h189v125q0 93 19 166.5t59 130t107.5 87t158.5 30.5h90v-125h-72z" />
<glyph unicode="g" d="M965 956h131v-815q0 -170 -36.5 -291.5t-106.5 -192t-162 -102.5t-213 -32q-125 0 -235 59.5t-179 173.5l110 62q51 -82 133 -126t171 -44q91 0 159.5 24.5t121 80t79.5 151.5t27 231v49q-53 -96 -156 -150t-225 -54q-132 0 -243 63.5t-177 178.5t-66 257 q0 215 141 356.5t345 141.5q123 0 225 -54.5t156 -150.5v184zM594 104q153 0 262 104.5t109 266.5q0 111 -53.5 199t-137.5 133t-180 45q-152 0 -258.5 -107t-106.5 -264q0 -159 106.5 -268t258.5 -109z" />
<glyph unicode="h" horiz-adv-x="1165" d="M627 977q176 0 282.5 -112.5t106.5 -307.5v-557h-131v551q0 135 -76.5 216t-194.5 81q-60 0 -114.5 -18t-101 -54t-74.5 -99.5t-29 -146.5v-530h-131v1495h131v-711q40 95 135.5 144t196.5 49z" />
<glyph unicode="i" horiz-adv-x="458" d="M229 1217q-41 0 -70.5 26.5t-29.5 65.5q0 40 29.5 67t70.5 27q43 0 73 -26.5t30 -67.5q0 -39 -30 -65.5t-73 -26.5zM164 0v956h131v-956h-131z" />
<glyph unicode="j" horiz-adv-x="475" d="M246 1217q-41 0 -71 26.5t-30 65.5q0 40 30 67t71 27q43 0 72.5 -26.5t29.5 -67.5q0 -39 -29.5 -65.5t-72.5 -26.5zM-123 -465v125h92q215 0 211 283v1013h131v-1013q0 -408 -331 -408h-103z" />
<glyph unicode="k" horiz-adv-x="942" d="M956 0h-178l-483 492v-492h-131v1495h131v-905l358 366h183l-410 -415z" />
<glyph unicode="l" horiz-adv-x="458" d="M164 0v1495h131v-1495h-131z" />
<glyph unicode="m" horiz-adv-x="1841" d="M1311 977q175 0 277 -111.5t102 -308.5v-557h-131v551q0 137 -74.5 218t-194.5 81q-139 2 -223 -95.5t-74 -267.5l-2 9v-496h-129v551q0 137 -73 218t-189 81q-127 0 -214.5 -79.5t-90.5 -240.5v-530h-131v956h131v-172q35 92 126 142.5t202 50.5q118 0 207 -60t128 -169 q25 68 67 115.5t93 71t97.5 33t95.5 9.5z" />
<glyph unicode="n" horiz-adv-x="1165" d="M627 977q176 0 282.5 -112.5t106.5 -307.5v-557h-131v551q0 135 -76.5 216t-194.5 81q-60 0 -114.5 -18t-101 -54t-74.5 -99.5t-29 -146.5v-530h-131v956h131v-172q40 95 135.5 144t196.5 49z" />
<glyph unicode="o" horiz-adv-x="1196" d="M598 -20q-136 0 -249.5 61t-182 177t-68.5 263t68.5 261.5t181.5 174.5t250 60t250.5 -60t182.5 -174.5t69 -261.5t-69 -263t-183 -177t-250 -61zM598 104q155 0 263 105.5t108 271.5q0 165 -108 268t-263 103q-156 0 -262.5 -103t-106.5 -268q0 -167 106.5 -272 t262.5 -105z" />
<glyph unicode="p" d="M676 977q99 0 188.5 -37.5t154.5 -103t103.5 -159t38.5 -200.5q0 -215 -140.5 -356t-344.5 -141q-123 0 -225.5 54.5t-155.5 151.5v-651h-131v1421h131v-188q52 97 155.5 153t225.5 56zM666 104q153 0 259.5 107t106.5 264q0 159 -106.5 268t-259.5 109t-262 -104.5 t-109 -266.5q0 -111 53.5 -199t137.5 -133t180 -45z" />
<glyph unicode="q" d="M965 956h131v-1421h-131v649q-53 -96 -155.5 -150t-225.5 -54q-204 0 -345 141t-141 356t142 357.5t344 142.5q122 0 225 -55t156 -152v186zM594 104q96 0 180 45t137.5 133t53.5 199q0 162 -109 266.5t-262 104.5q-152 0 -258.5 -109t-106.5 -268q0 -157 106.5 -264 t258.5 -107z" />
<glyph unicode="r" horiz-adv-x="765" d="M596 977q92 0 152 -29l-25 -125q-66 27 -129 27q-66 0 -118 -28.5t-85 -75.5t-54.5 -112t-30.5 -132.5t-9 -141.5v-360h-133v956h133v-233q36 123 112 188.5t187 65.5z" />
<glyph unicode="s" horiz-adv-x="878" d="M434 -20q-85 0 -160 30.5t-127.5 95.5t-60.5 152h121q12 -66 71 -114t156 -48q101 0 161 45.5t60 118.5q0 115 -151 154l-137 32q-113 28 -178.5 89.5t-65.5 173.5q0 117 89 192.5t226 75.5q82 0 151 -28.5t114.5 -88.5t48.5 -143h-127q-4 63 -58 103t-127 40 q-83 0 -134.5 -42.5t-51.5 -110.5q0 -112 147 -146l142 -35q89 -21 145 -65t77 -93.5t21 -109.5q0 -125 -100 -201.5t-252 -76.5z" />
<glyph unicode="t" horiz-adv-x="616" d="M578 956v-112h-220v-844h-129v844h-174v112h174v381h129v-381h220z" />
<glyph unicode="u" horiz-adv-x="1165" d="M870 956h131v-956h-131v168q-27 -64 -85 -108t-120 -62t-126 -18q-176 0 -282 112t-105 307v557h131v-550q0 -136 75.5 -216.5t194.5 -80.5q47 0 91 10.5t85.5 35t72 60t49 90t19.5 121.5v530z" />
<glyph unicode="v" horiz-adv-x="1024" d="M842 956h141l-405 -956h-136l-399 956h139l328 -796z" />
<glyph unicode="w" horiz-adv-x="1615" d="M1434 956h139l-356 -956h-115l-297 782l-285 -782h-114l-367 956h141l281 -759l278 759h135l281 -757z" />
<glyph unicode="x" horiz-adv-x="964" d="M940 0h-158l-299 418l-303 -418h-155l381 526l-312 430h160l229 -321l228 321h159l-309 -428z" />
<glyph unicode="y" horiz-adv-x="1019" d="M842 956h141l-600 -1421h-139l196 477l-395 944h141l326 -782z" />
<glyph unicode="z" horiz-adv-x="991" d="M899 956v-104l-629 -727h629v-125h-815v102l623 729h-605v125h797z" />
<glyph unicode="{" horiz-adv-x="735" d="M330 786q0 -66 -37.5 -126t-104.5 -76q67 -11 104.5 -73t37.5 -130v-322q0 -122 78 -199t217 -77h63v-111h-92q-165 0 -278.5 106.5t-112.5 280.5v330q0 51 -38 92t-93 47v111q55 6 93 47t38 92v330q-1 174 112.5 280.5t278.5 106.5h92v-111h-63q-139 0 -217 -77 t-78 -199v-322z" />
<glyph unicode="|" horiz-adv-x="483" d="M193 -252v1882h98v-1882h-98z" />
<glyph unicode="}" horiz-adv-x="735" d="M530 778q0 -51 38.5 -92t93.5 -47v-111q-55 -6 -93.5 -47t-38.5 -92v-330q1 -174 -112.5 -280.5t-278.5 -106.5h-94v111h64q141 0 218.5 77t75.5 199v322q0 67 38.5 129.5t105.5 73.5q-68 16 -106 76t-38 126v322q2 122 -75.5 199t-218.5 77h-64v111h94 q165 0 278.5 -106.5t112.5 -280.5v-330z" />
<glyph unicode="~" horiz-adv-x="1398" d="M1249 602q-52 -60 -132 -101.5t-165 -41.5q-42 0 -84 8.5t-65 17t-62.5 26t-50.5 21.5q-10 4 -46.5 20.5t-58 24.5t-59.5 16.5t-75 8.5q-61 0 -127 -33t-115 -82l-55 82q53 58 133.5 100t165.5 42q42 0 84 -9t64 -17t62.5 -26l49.5 -22q10 -4 46.5 -20.5t58 -24.5 t59.5 -16.5t75 -8.5q60 0 126.5 34t115.5 81z" />
<glyph unicode="&#xa1;" horiz-adv-x="475" d="M238 977q43 0 73.5 -27.5t30.5 -68.5q0 -42 -30.5 -70.5t-73.5 -28.5t-74 28.5t-31 70.5q0 41 31 68.5t74 27.5zM184 578h109l10 -1043h-131z" />
<glyph unicode="&#xa2;" horiz-adv-x="1044" d="M868 201l82 -88q-125 -119 -313 -131v-224h-98v228q-188 23 -313.5 156.5t-125.5 336.5t125.5 337t313.5 157v211h98v-207q184 -12 313 -131l-82 -90q-107 96 -258 96q-160 0 -269.5 -104t-109.5 -269q0 -164 109.5 -268.5t269.5 -104.5q152 0 258 95z" />
<glyph unicode="&#xa3;" horiz-adv-x="1261" d="M1040 301h129v-94q0 -91 -46.5 -149t-127.5 -58h-909v125h197v383h-164v94h164v342q0 99 34 179.5t91.5 131t131 78t154.5 27.5q162 0 274.5 -106t118.5 -281h-131q-6 119 -80.5 192.5t-193.5 73.5q-109 0 -188.5 -80.5t-79.5 -214.5v-342h284v-94h-284v-383h553 q34 0 53.5 21.5t19.5 56.5v98z" />
<glyph unicode="&#xa4;" horiz-adv-x="1208" d="M141 1083l82 82l152 -151q98 73 225 73q131 0 231 -75l154 153l82 -82l-154 -153q78 -107 78 -234q0 -121 -76 -223l152 -154l-82 -81l-151 153q-106 -80 -234 -80q-124 0 -229 76l-148 -147l-82 82l148 147q-76 105 -76 229q0 131 80 234zM602 436q108 0 186 78t78 186 q0 107 -78.5 185t-185.5 78t-185.5 -78t-78.5 -185q0 -109 77 -186.5t187 -77.5z" />
<glyph unicode="&#xa5;" horiz-adv-x="1325" d="M592 0v272h-356v101h356v194h-356v101h352l-527 743h160l441 -616l442 616h162l-533 -743h354v-101h-358v-194h358v-101h-358v-272h-137z" />
<glyph unicode="&#xa6;" horiz-adv-x="493" d="M199 860v770h98v-770h-98zM199 -252v766h98v-766h-98z" />
<glyph unicode="&#xa7;" horiz-adv-x="1024" d="M524 328q-165 0 -279 106.5t-114 280.5v311q0 174 114 281.5t279 107.5q123 0 223.5 -65.5t145.5 -178.5l-119 -38q-33 73 -100.5 114t-149.5 41q-112 0 -189 -72.5t-77 -189.5v-311q0 -118 77 -190t189 -72q65 0 123 22v-129q-59 -18 -123 -18zM500 -250 q-123 0 -223.5 65t-145.5 179l119 39q34 -73 101 -115.5t149 -42.5q112 0 189 73t77 191v310q0 118 -77 190t-189 72q-60 0 -121 -23v131q70 19 121 19q165 0 279 -107t114 -282v-310q0 -174 -114 -281.5t-279 -107.5z" />
<glyph unicode="&#xa8;" horiz-adv-x="1036" d="M344 1190q-40 0 -69 26.5t-29 65.5q0 41 28.5 67.5t69.5 26.5q42 0 71 -26.5t29 -67.5q0 -39 -29 -65.5t-71 -26.5zM690 1190q-40 0 -69 26.5t-29 65.5q0 41 28.5 67.5t69.5 26.5q42 0 71.5 -26.5t29.5 -67.5q0 -39 -29.5 -65.5t-71.5 -26.5z" />
<glyph unicode="&#xa9;" horiz-adv-x="1644" d="M821 -20q-147 0 -279.5 57t-228 154t-151.5 230.5t-56 280.5t56 281t151.5 231.5t228 155t279.5 57.5t280 -57.5t228.5 -155t152 -231.5t56.5 -281q0 -196 -95.5 -362.5t-260.5 -263t-361 -96.5zM821 78q169 0 311.5 83.5t225 227.5t82.5 313t-82.5 313.5t-225 229 t-311.5 84.5t-311.5 -84.5t-224.5 -228.5t-82 -314q0 -127 48.5 -242.5t131 -199t197 -133t241.5 -49.5zM829 330q-151 0 -254.5 107t-103.5 259q0 153 103.5 260t254.5 107q143 0 258 -115l-71 -74q-84 84 -187 84q-107 0 -180.5 -76.5t-73.5 -185.5q0 -108 74 -185 t180 -77q98 0 189 88l69 -80q-115 -112 -258 -112z" />
<glyph unicode="&#xaa;" horiz-adv-x="1116" d="M829 1489h119v-764h-119v149q-42 -78 -125 -121.5t-178 -43.5q-161 0 -274 113.5t-113 285.5t113 285.5t274 113.5q96 0 178.5 -44t124.5 -122v148zM541 821q119 0 202.5 80.5t83.5 202.5q0 127 -84 208t-202 81q-117 0 -199 -82.5t-82 -202.5t82.5 -203.5t198.5 -83.5z M172 473v107h762v-107h-762z" />
<glyph unicode="&#xab;" horiz-adv-x="915" d="M381 53l-283 424l283 424h129l-283 -424l283 -424h-129zM684 53l-283 424l283 424h129l-283 -424l285 -424h-131z" />
<glyph unicode="&#xac;" horiz-adv-x="1310" d="M158 711h993v-455h-127v328h-866v127z" />
<glyph unicode="&#xad;" horiz-adv-x="978" d="M145 408v127h689v-127h-689z" />
<glyph unicode="&#xae;" horiz-adv-x="1644" d="M821 1427q147 0 280 -57.5t228.5 -155t152 -231.5t56.5 -281q0 -196 -95.5 -362.5t-260.5 -263t-361 -96.5q-147 0 -279.5 57t-228 154t-151.5 230.5t-56 280.5t56 281t151.5 231.5t228 155t279.5 57.5zM821 78q169 0 311.5 83.5t225 227.5t82.5 313t-82.5 313.5 t-225 229t-311.5 84.5t-311.5 -84.5t-224.5 -228.5t-82 -314q0 -127 48.5 -242.5t131 -199t197 -133t241.5 -49.5zM1090 829q0 -196 -172 -231l178 -260h-115l-174 254h-115v-254h-104v721h274q112 0 170 -66.5t58 -163.5zM692 963v-277h164q67 0 100 40t33 97t-33 98.5 t-98 41.5h-166z" />
<glyph unicode="&#xaf;" horiz-adv-x="987" d="M246 1217v116h495v-116h-495z" />
<glyph unicode="&#xb0;" horiz-adv-x="710" d="M356 926q-104 0 -178 73.5t-74 176.5q0 104 74 177.5t178 73.5q103 0 176.5 -73.5t73.5 -177.5q0 -103 -73.5 -176.5t-176.5 -73.5zM356 1020q63 0 109.5 46.5t46.5 109.5q0 64 -46.5 110.5t-109.5 46.5q-64 0 -110.5 -46.5t-46.5 -110.5q0 -63 46.5 -109.5t110.5 -46.5z " />
<glyph unicode="&#xb1;" horiz-adv-x="1085" d="M606 666h344v-127h-344v-318h-129v318h-344v127h344v311h129v-311zM133 0v121h817v-121h-817z" />
<glyph unicode="&#xb2;" horiz-adv-x="638" d="M252 1178h303v-105h-479l2 62l309 368q47 60 47 113q0 47 -34.5 77.5t-88.5 30.5q-52 0 -86.5 -28.5t-46.5 -81.5l-104 16q19 93 81.5 146t161.5 53q103 0 167.5 -59.5t64.5 -155.5q0 -95 -78 -187z" />
<glyph unicode="&#xb3;" horiz-adv-x="653" d="M432 1477q64 -21 102.5 -72.5t38.5 -122.5q0 -96 -78 -157.5t-198 -61.5q-76 0 -138.5 32t-99.5 91l76 63q55 -84 156 -84q74 0 120 35.5t46 93.5q0 57 -40.5 93t-103.5 36h-73v84h49q62 0 98 33.5t33 83.5q-2 46 -37 74t-92 28q-42 0 -82 -20t-62 -51l-61 71 q89 103 219 103q100 0 165 -55t65 -146q0 -47 -27.5 -86.5t-75.5 -64.5z" />
<glyph unicode="&#xb4;" horiz-adv-x="966" d="M264 1120l199 314h158l-230 -314h-127z" />
<glyph unicode="&#xb5;" horiz-adv-x="1198" d="M190 956h129v-557q0 -132 69 -210t183 -78q59 0 111.5 17.5t97 53t70.5 98t27 144.5v532h131v-956h-131v158q-26 -60 -78.5 -101.5t-110 -58t-117.5 -16.5q-172 0 -252 110v-391h-129v1255z" />
<glyph unicode="&#xb6;" horiz-adv-x="1255" d="M518 -129v666q-185 6 -314.5 133t-129.5 305q0 181 127 308.5t309 127.5h129v-1540h-121zM516 -356v114h139q57 0 86 39t29 97v1517h154q109 0 186.5 -78t77.5 -188v-154h-121v154q0 58 -38.5 100.5t-94.5 42.5h-41v-1386q0 -104 -59 -179.5t-158 -78.5h-160z" />
<glyph unicode="&#xb7;" horiz-adv-x="497" d="M248 401q-42 0 -72.5 28.5t-30.5 70.5q0 41 30.5 69.5t72.5 28.5q43 0 73.5 -28.5t30.5 -69.5q0 -42 -30.5 -70.5t-73.5 -28.5z" />
<glyph unicode="&#xb8;" horiz-adv-x="1048" d="M526 -410q-90 0 -144 58.5t-54 154.5h96q3 -54 31 -85t71 -31q44 0 70.5 27t26.5 71q0 22 -9 43l-82 215h95l75 -178q19 -44 19 -82q0 -86 -54.5 -139.5t-140.5 -53.5z" />
<glyph unicode="&#xb9;" horiz-adv-x="462" d="M332 1829h12v-756h-111v604l-176 -71v104z" />
<glyph unicode="&#xba;" horiz-adv-x="1093" d="M547 709q-169 0 -286.5 111.5t-117.5 289.5q0 177 117.5 287t286.5 110q109 0 200.5 -48t147 -139.5t55.5 -209.5q0 -178 -117.5 -289.5t-285.5 -111.5zM547 821q120 0 202 80.5t82 208.5q0 127 -82 206t-202 79t-201.5 -78.5t-81.5 -206.5t81.5 -208.5t201.5 -80.5z M168 580h762v-107h-762v107z" />
<glyph unicode="&#xbb;" horiz-adv-x="915" d="M102 53l283 424l-283 424h129l283 -424l-283 -424h-129zM406 53l282 424l-282 424h129l282 -424l-282 -424h-129z" />
<glyph unicode="&#xbc;" horiz-adv-x="1482" d="M1047 1374h110l-921 -1394h-111zM231 604v602l-174 -71v104l275 119h10v-754h-111zM1421 248v-101h-121v-147h-112v147h-373v37l404 561h81v-497h121zM969 248h219v309z" />
<glyph unicode="&#xbd;" horiz-adv-x="1470" d="M1047 1374h110l-921 -1394h-111zM231 604v602l-174 -71v104l275 119h10v-754h-111zM1083 104h301v-104h-477v61l310 369q49 58 49 111q0 49 -35 79.5t-90 30.5q-51 0 -85.5 -29.5t-45.5 -82.5l-105 18q19 92 82 145.5t160 53.5q104 0 167.5 -60t63.5 -157t-75 -185z" />
<glyph unicode="&#xbe;" horiz-adv-x="1673" d="M1237 1374h111l-922 -1394h-111zM573 813q0 -98 -77.5 -158.5t-198.5 -60.5q-77 0 -139 31.5t-99 89.5l76 63q55 -84 156 -84q74 0 120 35.5t46 93.5t-40 93.5t-104 35.5h-73v86h49q62 0 98 33.5t33 81.5q-2 46 -37 74t-92 28q-43 0 -82.5 -19.5t-61.5 -51.5l-61 71 q89 103 219 103q100 0 165 -55t65 -146q0 -45 -27.5 -85.5t-73.5 -65.5q63 -22 101 -73t38 -120zM1612 248v-101h-121v-147h-113v147h-372v37l403 561h82v-497h121zM1159 248h219v309z" />
<glyph unicode="&#xbf;" horiz-adv-x="940" d="M598 977q43 0 73.5 -27.5t30.5 -68.5q0 -42 -30.5 -70.5t-73.5 -28.5t-73.5 28.5t-30.5 70.5q0 41 30.5 68.5t73.5 27.5zM662 592v-113q1 -83 -23.5 -140t-63 -88t-98.5 -54l-84 -31q-85 -28 -139.5 -94t-54.5 -160q0 -121 77 -193.5t191 -72.5q109 0 190 71.5t88 192.5 h127q-5 -117 -62 -206t-147 -135t-196 -46q-166 0 -282.5 107.5t-116.5 281.5q0 140 82 240t206 139q45 14 71.5 25.5t53.5 32.5t39 53t12 77l3 113h127z" />
<glyph unicode="&#xc0;" horiz-adv-x="1247" d="M690 1552h-127l-227 314h160zM1092 0l-142 375h-651l-141 -375h-144l539 1411h143l537 -1411h-141zM346 496h557l-278 735z" />
<glyph unicode="&#xc1;" horiz-adv-x="1247" d="M924 1866l-230 -314h-127l199 314h158zM1092 0l-142 375h-651l-141 -375h-144l539 1411h143l537 -1411h-141zM346 496h557l-278 735z" />
<glyph unicode="&#xc2;" horiz-adv-x="1247" d="M623 1765l-179 -213h-120l229 314h141l230 -314h-121zM1092 0l-142 375h-651l-141 -375h-144l539 1411h143l537 -1411h-141zM346 496h557l-278 735z" />
<glyph unicode="&#xc3;" horiz-adv-x="1247" d="M526 1690q-24 0 -43 -25.5t-20 -69.5h-96q4 101 49.5 152t109.5 51q41 0 77.5 -24t65 -48t50.5 -24q26 0 45 23t20 69h97q-6 -101 -52 -151t-110 -50q-40 0 -76 24.5t-64.5 48.5t-52.5 24zM1092 0l-142 375h-651l-141 -375h-144l539 1411h143l537 -1411h-141zM346 496 h557l-278 735z" />
<glyph unicode="&#xc4;" horiz-adv-x="1247" d="M449 1614q-40 0 -69.5 26.5t-29.5 65.5q0 40 29 67t70 27q42 0 71 -26.5t29 -67.5q0 -39 -29 -65.5t-71 -26.5zM795 1614q-40 0 -69.5 26.5t-29.5 65.5q0 40 29 67t70 27q42 0 71 -26.5t29 -67.5q0 -39 -29 -65.5t-71 -26.5zM1092 0l-142 375h-651l-141 -375h-144 l539 1411h143l537 -1411h-141zM346 496h557l-278 735z" />
<glyph unicode="&#xc5;" horiz-adv-x="1247" d="M621 1559q-80 0 -136.5 56.5t-56.5 137.5q0 82 56.5 139.5t136.5 57.5q83 0 140.5 -57.5t57.5 -139.5t-57.5 -138t-140.5 -56zM621 1864q-44 0 -75.5 -32.5t-31.5 -78.5q0 -45 31 -76.5t76 -31.5q47 0 79.5 31t32.5 77t-32.5 78.5t-79.5 32.5zM1092 0l-142 375h-651 l-141 -375h-144l539 1411h143l537 -1411h-141zM346 496h557l-278 735z" />
<glyph unicode="&#xc6;" horiz-adv-x="1894" d="M1096 127h692v-127h-825v375h-611l-231 -375h-154l873 1411h923v-127h-667v-528h583v-127h-583v-502zM432 504h531v778h-48z" />
<glyph unicode="&#xc7;" horiz-adv-x="1388" d="M815 106q116 0 221 46t183 127l96 -86q-88 -94 -207.5 -149.5t-253.5 -61.5l49 -117q19 -44 19 -82q0 -86 -54.5 -139.5t-140.5 -53.5q-90 0 -144.5 58.5t-54.5 154.5h97q3 -54 31 -85t71 -31q44 0 70 27t26 71q0 24 -8 43l-59 154q-181 15 -330 114.5t-234.5 259 t-85.5 346.5q0 147 55.5 281t150 230.5t226.5 154t277 57.5q147 0 276.5 -56.5t223.5 -156.5l-96 -86q-76 81 -181.5 126.5t-222.5 45.5q-158 0 -290 -80t-207.5 -217t-75.5 -299t75.5 -299t207.5 -217t290 -80z" />
<glyph unicode="&#xc8;" horiz-adv-x="1142" d="M641 1552h-127l-227 314h159zM342 127h694v-127h-827v1411h805v-127h-672v-528h586v-127h-586v-502z" />
<glyph unicode="&#xc9;" horiz-adv-x="1142" d="M874 1866l-229 -314h-127l199 314h157zM342 127h694v-127h-827v1411h805v-127h-672v-528h586v-127h-586v-502z" />
<glyph unicode="&#xca;" horiz-adv-x="1142" d="M573 1765l-178 -213h-121l230 314h141l229 -314h-120zM342 127h694v-127h-827v1411h805v-127h-672v-528h586v-127h-586v-502z" />
<glyph unicode="&#xcb;" horiz-adv-x="1142" d="M399 1614q-40 0 -69 26.5t-29 65.5q0 41 28.5 67.5t69.5 26.5q42 0 71.5 -26.5t29.5 -67.5q0 -39 -29.5 -65.5t-71.5 -26.5zM745 1614q-40 0 -69 26.5t-29 65.5q0 41 28.5 67.5t69.5 26.5q42 0 71.5 -26.5t29.5 -67.5q0 -39 -29.5 -65.5t-71.5 -26.5zM342 127h694v-127 h-827v1411h805v-127h-672v-528h586v-127h-586v-502z" />
<glyph unicode="&#xcc;" horiz-adv-x="550" d="M215 1552l-227 314h159l195 -314h-127zM209 0v1411h135v-1411h-135z" />
<glyph unicode="&#xcd;" horiz-adv-x="550" d="M219 1552l199 314h157l-229 -314h-127zM209 0v1411h135v-1411h-135z" />
<glyph unicode="&#xce;" horiz-adv-x="550" d="M-25 1552l230 314h141l229 -314h-120l-181 213l-178 -213h-121zM209 0v1411h135v-1411h-135z" />
<glyph unicode="&#xcf;" horiz-adv-x="550" d="M100 1614q-40 0 -69 26.5t-29 65.5q0 41 28.5 67.5t69.5 26.5q42 0 71.5 -26.5t29.5 -67.5q0 -39 -29.5 -65.5t-71.5 -26.5zM446 1614q-40 0 -69 26.5t-29 65.5q0 41 28.5 67.5t69.5 26.5q42 0 71.5 -26.5t29.5 -67.5q0 -39 -29.5 -65.5t-71.5 -26.5zM209 0v1411h135 v-1411h-135z" />
<glyph unicode="&#xd0;" horiz-adv-x="1495" d="M752 1411q146 0 265.5 -54.5t198.5 -150t121.5 -224.5t42.5 -280q0 -201 -72.5 -358.5t-216.5 -250.5t-339 -93h-537v649h-160v105h160v657h537zM752 127q155 0 268.5 76.5t169 205t55.5 293.5q0 124 -32.5 229.5t-94 184.5t-155.5 123.5t-211 44.5h-402v-530h391v-105 h-391v-522h402z" />
<glyph unicode="&#xd1;" horiz-adv-x="1413" d="M608 1690q-24 0 -43 -25.5t-20 -69.5h-96q4 101 49.5 152t109.5 51q41 0 77.5 -24t65 -48t50.5 -24q26 0 45 23t20 69h97q-6 -101 -52 -151t-110 -50q-40 0 -76 24.5t-64.5 48.5t-52.5 24zM1071 1411h135v-1411h-139l-723 1176v-1176h-135v1411h141l721 -1173v1173z" />
<glyph unicode="&#xd2;" horiz-adv-x="1640" d="M760 1552l-228 314h160l195 -314h-127zM819 -20q-148 0 -280.5 57t-227 154t-150 230.5t-55.5 280.5q0 198 94 364.5t258 263.5t361 97t361 -97t258 -263.5t94 -364.5q0 -147 -55.5 -280.5t-150 -230.5t-227 -154t-280.5 -57zM819 106q160 0 293 80t209 217t76 299 t-76 299.5t-209 218t-293 80.5q-120 0 -227.5 -47.5t-184 -128t-121 -191t-44.5 -231.5t44.5 -231t121 -190t184 -127.5t227.5 -47.5z" />
<glyph unicode="&#xd3;" horiz-adv-x="1640" d="M764 1552l199 314h157l-229 -314h-127zM819 -20q-148 0 -280.5 57t-227 154t-150 230.5t-55.5 280.5q0 198 94 364.5t258 263.5t361 97t361 -97t258 -263.5t94 -364.5q0 -147 -55.5 -280.5t-150 -230.5t-227 -154t-280.5 -57zM819 106q160 0 293 80t209 217t76 299 t-76 299.5t-209 218t-293 80.5q-120 0 -227.5 -47.5t-184 -128t-121 -191t-44.5 -231.5t44.5 -231t121 -190t184 -127.5t227.5 -47.5z" />
<glyph unicode="&#xd4;" horiz-adv-x="1640" d="M520 1552l230 314h141l229 -314h-121l-180 213l-178 -213h-121zM819 -20q-148 0 -280.5 57t-227 154t-150 230.5t-55.5 280.5q0 198 94 364.5t258 263.5t361 97t361 -97t258 -263.5t94 -364.5q0 -147 -55.5 -280.5t-150 -230.5t-227 -154t-280.5 -57zM819 106 q160 0 293 80t209 217t76 299t-76 299.5t-209 218t-293 80.5q-120 0 -227.5 -47.5t-184 -128t-121 -191t-44.5 -231.5t44.5 -231t121 -190t184 -127.5t227.5 -47.5z" />
<glyph unicode="&#xd5;" horiz-adv-x="1640" d="M563 1595q4 101 50 152t110 51q32 0 62.5 -15t49 -33t40.5 -33t40 -15q26 0 45.5 23t20.5 69h96q-6 -101 -52 -151t-110 -50q-32 0 -61.5 15t-48 33.5t-41 33.5t-41.5 15q-24 0 -43.5 -25.5t-20.5 -69.5h-96zM819 -20q-148 0 -280.5 57t-227 154t-150 230.5t-55.5 280.5 q0 198 94 364.5t258 263.5t361 97t361 -97t258 -263.5t94 -364.5q0 -147 -55.5 -280.5t-150 -230.5t-227 -154t-280.5 -57zM819 106q160 0 293 80t209 217t76 299t-76 299.5t-209 218t-293 80.5q-120 0 -227.5 -47.5t-184 -128t-121 -191t-44.5 -231.5t44.5 -231t121 -190 t184 -127.5t227.5 -47.5z" />
<glyph unicode="&#xd6;" horiz-adv-x="1640" d="M645 1614q-40 0 -69 26.5t-29 65.5q0 41 28.5 67.5t69.5 26.5q42 0 71 -26.5t29 -67.5q0 -39 -29 -65.5t-71 -26.5zM991 1614q-40 0 -69 26.5t-29 65.5q0 41 28.5 67.5t69.5 26.5q42 0 71.5 -26.5t29.5 -67.5q0 -39 -29.5 -65.5t-71.5 -26.5zM819 -20q-148 0 -280.5 57 t-227 154t-150 230.5t-55.5 280.5q0 198 94 364.5t258 263.5t361 97t361 -97t258 -263.5t94 -364.5q0 -147 -55.5 -280.5t-150 -230.5t-227 -154t-280.5 -57zM819 106q160 0 293 80t209 217t76 299t-76 299.5t-209 218t-293 80.5q-120 0 -227.5 -47.5t-184 -128t-121 -191 t-44.5 -231.5t44.5 -231t121 -190t184 -127.5t227.5 -47.5z" />
<glyph unicode="&#xd7;" horiz-adv-x="962" d="M829 299l-88 -92l-260 260l-258 -256l-90 88l258 258l-256 256l90 88l256 -254l258 258l88 -92l-256 -256z" />
<glyph unicode="&#xd8;" horiz-adv-x="1650" d="M1540 1360l-176 -180q83 -97 128.5 -220t45.5 -258q0 -147 -55.5 -280.5t-150 -230.5t-227 -154t-280.5 -57q-265 0 -465 172l-174 -177l-73 74l174 176q-174 206 -174 477q0 148 55.5 282t150 231t226.5 154.5t280 57.5q133 0 253 -45.5t214 -128.5l174 177zM248 702 q0 -217 131 -380l821 837q-160 141 -375 141q-120 0 -227.5 -47.5t-184 -128t-121 -191t-44.5 -231.5zM1403 702q0 217 -131 383l-821 -839q163 -140 374 -140q160 0 293 80t209 217t76 299z" />
<glyph unicode="&#xd9;" horiz-adv-x="1388" d="M633 1552l-227 314h159l195 -314h-127zM694 -20q-102 0 -193.5 34.5t-160.5 96.5t-109.5 156.5t-40.5 207.5v936h136v-936q0 -171 105.5 -268.5t262.5 -97.5q102 0 184.5 41.5t133.5 126t51 198.5v936h135v-936q0 -113 -40.5 -207.5t-109.5 -156.5t-160.5 -96.5 t-193.5 -34.5z" />
<glyph unicode="&#xda;" horiz-adv-x="1388" d="M637 1552l199 314h157l-229 -314h-127zM694 -20q-102 0 -193.5 34.5t-160.5 96.5t-109.5 156.5t-40.5 207.5v936h136v-936q0 -171 105.5 -268.5t262.5 -97.5q102 0 184.5 41.5t133.5 126t51 198.5v936h135v-936q0 -113 -40.5 -207.5t-109.5 -156.5t-160.5 -96.5 t-193.5 -34.5z" />
<glyph unicode="&#xdb;" horiz-adv-x="1388" d="M393 1552l230 314h141l229 -314h-121l-180 213l-178 -213h-121zM694 -20q-102 0 -193.5 34.5t-160.5 96.5t-109.5 156.5t-40.5 207.5v936h136v-936q0 -171 105.5 -268.5t262.5 -97.5q102 0 184.5 41.5t133.5 126t51 198.5v936h135v-936q0 -113 -40.5 -207.5 t-109.5 -156.5t-160.5 -96.5t-193.5 -34.5z" />
<glyph unicode="&#xdc;" horiz-adv-x="1388" d="M518 1614q-40 0 -69 26.5t-29 65.5q0 41 28.5 67.5t69.5 26.5q42 0 71 -26.5t29 -67.5q0 -39 -29 -65.5t-71 -26.5zM864 1614q-40 0 -69 26.5t-29 65.5q0 41 28.5 67.5t69.5 26.5q42 0 71.5 -26.5t29.5 -67.5q0 -39 -29.5 -65.5t-71.5 -26.5zM694 -20q-102 0 -193.5 34.5 t-160.5 96.5t-109.5 156.5t-40.5 207.5v936h136v-936q0 -171 105.5 -268.5t262.5 -97.5q102 0 184.5 41.5t133.5 126t51 198.5v936h135v-936q0 -113 -40.5 -207.5t-109.5 -156.5t-160.5 -96.5t-193.5 -34.5z" />
<glyph unicode="&#xdd;" horiz-adv-x="1232" d="M915 1866l-229 -314h-127l199 314h157zM1059 1411h162l-539 -749v-662h-135v662l-531 749h160l440 -618z" />
<glyph unicode="&#xde;" horiz-adv-x="1189" d="M676 1133q179 0 299.5 -116.5t120.5 -305.5q0 -191 -120.5 -310.5t-299.5 -119.5h-332v-281h-135v1411h135v-278h332zM678 408q122 0 204.5 85t82.5 218t-85 214t-210 81h-326v-598h334z" />
<glyph unicode="&#xdf;" horiz-adv-x="1187" d="M801 854q130 -38 210.5 -154t80.5 -262q0 -197 -132 -327.5t-346 -130.5q-98 -4 -194 36l31 115q82 -29 165 -29q156 0 250.5 97.5t94.5 249.5q-3 144 -101 239.5t-246 95.5h-71v113h61q101 0 166.5 71t65.5 175t-69 171.5t-189 67.5q-133 0 -208 -84t-75 -245v-1053 h-131v1053q0 217 110.5 335.5t300.5 118.5q180 0 286 -100.5t106 -251.5q0 -95 -45 -178.5t-121 -122.5z" />
<glyph unicode="&#xe0;" d="M694 1098h-127l-227 313h160zM965 956h131v-956h-131v186q-53 -97 -156 -151.5t-225 -54.5q-132 0 -243 63.5t-177 178.5t-66 257q0 215 141 356.5t345 141.5q123 0 225 -54.5t156 -150.5v184zM594 104q153 0 262 104.5t109 266.5q0 111 -53.5 199t-137.5 133t-180 45 q-152 0 -258.5 -107t-106.5 -264q0 -159 106.5 -268t258.5 -109z" />
<glyph unicode="&#xe1;" d="M928 1411l-230 -313h-127l199 313h158zM965 956h131v-956h-131v186q-53 -97 -156 -151.5t-225 -54.5q-132 0 -243 63.5t-177 178.5t-66 257q0 215 141 356.5t345 141.5q123 0 225 -54.5t156 -150.5v184zM594 104q153 0 262 104.5t109 266.5q0 111 -53.5 199t-137.5 133 t-180 45q-152 0 -258.5 -107t-106.5 -264q0 -159 106.5 -268t258.5 -109z" />
<glyph unicode="&#xe2;" d="M627 1311l-178 -213h-121l229 313h141l230 -313h-121zM965 956h131v-956h-131v186q-53 -97 -156 -151.5t-225 -54.5q-132 0 -243 63.5t-177 178.5t-66 257q0 215 141 356.5t345 141.5q123 0 225 -54.5t156 -150.5v184zM594 104q153 0 262 104.5t109 266.5 q0 111 -53.5 199t-137.5 133t-180 45q-152 0 -258.5 -107t-106.5 -264q0 -159 106.5 -268t258.5 -109z" />
<glyph unicode="&#xe3;" d="M530 1235q-24 0 -43 -25t-20 -69h-96q4 101 49.5 151.5t109.5 50.5q41 0 77.5 -24t65 -48t50.5 -24q26 0 45 23t20 69h97q-6 -101 -52 -150.5t-110 -49.5q-32 0 -61.5 15t-48 33t-41.5 33t-42 15zM965 956h131v-956h-131v186q-53 -97 -156 -151.5t-225 -54.5 q-132 0 -243 63.5t-177 178.5t-66 257q0 215 141 356.5t345 141.5q123 0 225 -54.5t156 -150.5v184zM594 104q153 0 262 104.5t109 266.5q0 111 -53.5 199t-137.5 133t-180 45q-152 0 -258.5 -107t-106.5 -264q0 -159 106.5 -268t258.5 -109z" />
<glyph unicode="&#xe4;" d="M453 1159q-40 0 -69.5 26.5t-29.5 65.5q0 41 29 68t70 27q42 0 71 -27t29 -68q0 -39 -29 -65.5t-71 -26.5zM799 1159q-40 0 -69.5 26.5t-29.5 65.5q0 41 29 68t70 27q42 0 71 -27t29 -68q0 -39 -29 -65.5t-71 -26.5zM965 956h131v-956h-131v186q-53 -97 -156 -151.5 t-225 -54.5q-132 0 -243 63.5t-177 178.5t-66 257q0 215 141 356.5t345 141.5q123 0 225 -54.5t156 -150.5v184zM594 104q153 0 262 104.5t109 266.5q0 111 -53.5 199t-137.5 133t-180 45q-152 0 -258.5 -107t-106.5 -264q0 -159 106.5 -268t258.5 -109z" />
<glyph unicode="&#xe5;" d="M625 1104q-80 0 -136.5 56.5t-56.5 137.5q0 82 56.5 139.5t136.5 57.5q83 0 140.5 -57.5t57.5 -139.5t-57.5 -138t-140.5 -56zM625 1409q-44 0 -75.5 -32.5t-31.5 -78.5t31 -77t76 -31q47 0 79.5 31t32.5 77t-32.5 78.5t-79.5 32.5zM965 956h131v-956h-131v186 q-53 -97 -156 -151.5t-225 -54.5q-132 0 -243 63.5t-177 178.5t-66 257q0 215 141 356.5t345 141.5q123 0 225 -54.5t156 -150.5v184zM594 104q153 0 262 104.5t109 266.5q0 111 -53.5 199t-137.5 133t-180 45q-152 0 -258.5 -107t-106.5 -264q0 -159 106.5 -268t258.5 -109 z" />
<glyph unicode="&#xe6;" horiz-adv-x="1867" d="M1778 481q0 -9 -1 -28.5t-1 -28.5h-824q17 -145 116 -232.5t241 -87.5q99 0 182.5 43.5t128.5 120.5l115 -49q-62 -114 -176.5 -176.5t-251.5 -62.5q-133 0 -244 61t-176 170q-191 -231 -457 -231q-155 0 -250.5 76.5t-95.5 205.5t100.5 211t278.5 82q90 0 186 -21 t170 -57v105q0 135 -79 203.5t-222 68.5q-178 0 -297 -119l-82 82q48 60 120 98t135.5 50t131.5 12q290 0 383 -199q64 95 168.5 147t229.5 52q206 0 338.5 -136t132.5 -360zM954 537h693q-13 147 -106.5 231t-233.5 84q-153 0 -244 -84.5t-109 -230.5zM428 98q110 0 230 63 t178 154l-17 52q-77 39 -172.5 59t-175.5 20q-128 0 -195 -53t-67 -127t59 -121t160 -47z" />
<glyph unicode="&#xe7;" horiz-adv-x="1026" d="M866 201l82 -88q-111 -104 -262 -125l51 -123q19 -44 19 -82q0 -86 -54.5 -139.5t-140.5 -53.5q-90 0 -144.5 58.5t-54.5 154.5h97q3 -54 31 -85t71 -31q44 0 70 27t26 71q0 24 -8 43l-59 154q-134 3 -245 63.5t-179 174.5t-68 259q0 147 70 262t184.5 175.5t251.5 60.5 q203 0 344 -131l-82 -90q-107 96 -258 96q-160 0 -269.5 -104t-109.5 -269q0 -164 109.5 -268.5t269.5 -104.5q152 0 258 95z" />
<glyph unicode="&#xe8;" horiz-adv-x="1148" d="M637 1098h-127l-227 313h159zM1057 481q0 -39 -2 -57h-824q17 -151 114.5 -235.5t244.5 -84.5q99 0 181.5 43t129.5 121l113 -49q-62 -114 -176.5 -176.5t-251.5 -62.5q-135 0 -245.5 61t-176.5 176.5t-66 263.5t66 262t176.5 174t245.5 60q207 0 339 -136t132 -360z M233 537h695q-13 147 -106.5 231t-235.5 84q-144 0 -239.5 -82t-113.5 -233z" />
<glyph unicode="&#xe9;" horiz-adv-x="1148" d="M870 1411l-229 -313h-127l199 313h157zM1057 481q0 -39 -2 -57h-824q17 -151 114.5 -235.5t244.5 -84.5q99 0 181.5 43t129.5 121l113 -49q-62 -114 -176.5 -176.5t-251.5 -62.5q-135 0 -245.5 61t-176.5 176.5t-66 263.5t66 262t176.5 174t245.5 60q207 0 339 -136 t132 -360zM233 537h695q-13 147 -106.5 231t-235.5 84q-144 0 -239.5 -82t-113.5 -233z" />
<glyph unicode="&#xea;" horiz-adv-x="1148" d="M569 1311l-178 -213h-121l230 313h141l229 -313h-120zM1057 481q0 -39 -2 -57h-824q17 -151 114.5 -235.5t244.5 -84.5q99 0 181.5 43t129.5 121l113 -49q-62 -114 -176.5 -176.5t-251.5 -62.5q-135 0 -245.5 61t-176.5 176.5t-66 263.5t66 262t176.5 174t245.5 60 q207 0 339 -136t132 -360zM233 537h695q-13 147 -106.5 231t-235.5 84q-144 0 -239.5 -82t-113.5 -233z" />
<glyph unicode="&#xeb;" horiz-adv-x="1148" d="M395 1159q-40 0 -69 26.5t-29 65.5q0 41 29 68t69 27q42 0 71.5 -27t29.5 -68q0 -39 -29.5 -65.5t-71.5 -26.5zM741 1159q-40 0 -69 26.5t-29 65.5q0 41 29 68t69 27q42 0 71.5 -27t29.5 -68q0 -39 -29.5 -65.5t-71.5 -26.5zM1057 481q0 -39 -2 -57h-824 q17 -151 114.5 -235.5t244.5 -84.5q99 0 181.5 43t129.5 121l113 -49q-62 -114 -176.5 -176.5t-251.5 -62.5q-135 0 -245.5 61t-176.5 176.5t-66 263.5t66 262t176.5 174t245.5 60q207 0 339 -136t132 -360zM233 537h695q-13 147 -106.5 231t-235.5 84q-144 0 -239.5 -82 t-113.5 -233z" />
<glyph unicode="&#xec;" horiz-adv-x="458" d="M156 1120l-228 314h160l195 -314h-127zM164 0v956h131v-956h-131z" />
<glyph unicode="&#xed;" horiz-adv-x="458" d="M162 1120l198 314h158l-229 -314h-127zM164 0v956h131v-956h-131z" />
<glyph unicode="&#xee;" horiz-adv-x="458" d="M-70 1120l230 314h141l229 -314h-120l-181 211l-178 -211h-121zM164 0v956h131v-956h-131z" />
<glyph unicode="&#xef;" horiz-adv-x="458" d="M57 1190q-40 0 -69 26.5t-29 65.5q0 41 28.5 67.5t69.5 26.5q42 0 71.5 -26.5t29.5 -67.5q0 -39 -29.5 -65.5t-71.5 -26.5zM403 1190q-40 0 -69 26.5t-29 65.5q0 41 28.5 67.5t69.5 26.5q42 0 71.5 -26.5t29.5 -67.5q0 -39 -29.5 -65.5t-71.5 -26.5zM164 0v956h131v-956 h-131z" />
<glyph unicode="&#xf0;" horiz-adv-x="1198" d="M985 805q115 -131 115 -324q0 -147 -69 -263t-183 -177t-250 -61t-249.5 61t-182 177t-68.5 263t68.5 261.5t181.5 174.5t250 60q65 0 117 -14l-189 245l-256 -104l-30 76l233 94l-170 221h154l133 -174l194 80l31 -76l-174 -72zM598 104q155 0 263 105.5t108 271.5 q0 165 -108 268t-263 103q-156 0 -262.5 -103t-106.5 -268q0 -167 106.5 -272t262.5 -105z" />
<glyph unicode="&#xf1;" horiz-adv-x="1165" d="M487 1235q-24 0 -43 -25t-20 -69h-96q4 101 49.5 151.5t109.5 50.5q41 0 77.5 -24t65 -48t50.5 -24q26 0 45 23t20 69h97q-6 -101 -52 -150.5t-110 -49.5q-32 0 -61.5 15t-48 33t-41.5 33t-42 15zM627 977q176 0 282.5 -112.5t106.5 -307.5v-557h-131v551 q0 135 -76.5 216t-194.5 81q-60 0 -114.5 -18t-101 -54t-74.5 -99.5t-29 -146.5v-530h-131v956h131v-172q40 95 135.5 144t196.5 49z" />
<glyph unicode="&#xf2;" horiz-adv-x="1196" d="M539 1098l-228 313h160l195 -313h-127zM598 -20q-136 0 -249.5 61t-182 177t-68.5 263t68.5 261.5t181.5 174.5t250 60t250.5 -60t182.5 -174.5t69 -261.5t-69 -263t-183 -177t-250 -61zM598 104q155 0 263 105.5t108 271.5q0 165 -108 268t-263 103q-156 0 -262.5 -103 t-106.5 -268q0 -167 106.5 -272t262.5 -105z" />
<glyph unicode="&#xf3;" horiz-adv-x="1196" d="M543 1098l198 313h158l-229 -313h-127zM598 -20q-136 0 -249.5 61t-182 177t-68.5 263t68.5 261.5t181.5 174.5t250 60t250.5 -60t182.5 -174.5t69 -261.5t-69 -263t-183 -177t-250 -61zM598 104q155 0 263 105.5t108 271.5q0 165 -108 268t-263 103q-156 0 -262.5 -103 t-106.5 -268q0 -167 106.5 -272t262.5 -105z" />
<glyph unicode="&#xf4;" horiz-adv-x="1196" d="M299 1098l229 313h142l229 -313h-121l-180 213l-178 -213h-121zM598 -20q-136 0 -249.5 61t-182 177t-68.5 263t68.5 261.5t181.5 174.5t250 60t250.5 -60t182.5 -174.5t69 -261.5t-69 -263t-183 -177t-250 -61zM598 104q155 0 263 105.5t108 271.5q0 165 -108 268 t-263 103q-156 0 -262.5 -103t-106.5 -268q0 -167 106.5 -272t262.5 -105z" />
<glyph unicode="&#xf5;" horiz-adv-x="1196" d="M342 1141q4 101 50 151.5t110 50.5q32 0 62.5 -15t49 -33t40.5 -33t40 -15q26 0 45.5 23t20.5 69h96q-6 -101 -52 -150.5t-110 -49.5q-40 0 -75.5 24t-64 48t-52.5 24t-43.5 -25t-20.5 -69h-96zM598 -20q-136 0 -249.5 61t-182 177t-68.5 263t68.5 261.5t181.5 174.5 t250 60t250.5 -60t182.5 -174.5t69 -261.5t-69 -263t-183 -177t-250 -61zM598 104q155 0 263 105.5t108 271.5q0 165 -108 268t-263 103q-156 0 -262.5 -103t-106.5 -268q0 -167 106.5 -272t262.5 -105z" />
<glyph unicode="&#xf6;" horiz-adv-x="1196" d="M424 1159q-40 0 -69 26.5t-29 65.5q0 41 29 68t69 27q42 0 71 -27t29 -68q0 -39 -29 -65.5t-71 -26.5zM770 1159q-40 0 -69 26.5t-29 65.5q0 41 29 68t69 27q42 0 71 -27t29 -68q0 -39 -29 -65.5t-71 -26.5zM598 -20q-136 0 -249.5 61t-182 177t-68.5 263t68.5 261.5 t181.5 174.5t250 60t250.5 -60t182.5 -174.5t69 -261.5t-69 -263t-183 -177t-250 -61zM598 104q155 0 263 105.5t108 271.5q0 165 -108 268t-263 103q-156 0 -262.5 -103t-106.5 -268q0 -167 106.5 -272t262.5 -105z" />
<glyph unicode="&#xf7;" horiz-adv-x="1107" d="M553 745q-42 0 -72 29t-30 70t30 68.5t72 27.5q43 0 73.5 -27.5t30.5 -68.5t-30.5 -70t-73.5 -29zM133 434v123h842v-123h-842zM553 49q-42 0 -72 27.5t-30 68.5q0 42 30 70.5t72 28.5q43 0 73.5 -28.5t30.5 -70.5q0 -41 -30.5 -68.5t-73.5 -27.5z" />
<glyph unicode="&#xf8;" horiz-adv-x="1204" d="M1104 913l-111 -112q111 -130 111 -320q0 -147 -69 -263t-183 -177t-250 -61q-181 0 -313 104l-119 -121l-72 72l117 119q-113 136 -113 327q0 147 68.5 261.5t181.5 174.5t250 60q184 0 320 -105l108 111zM233 481q0 -137 74 -233l522 530q-99 74 -227 74 q-156 0 -262.5 -103t-106.5 -268zM973 481q0 132 -72 226l-522 -531q93 -72 223 -72q155 0 263 105.5t108 271.5z" />
<glyph unicode="&#xf9;" horiz-adv-x="1165" d="M651 1098h-127l-227 313h160zM870 956h131v-956h-131v168q-27 -64 -85 -108t-120 -62t-126 -18q-176 0 -282 112t-105 307v557h131v-550q0 -136 75.5 -216.5t194.5 -80.5q47 0 91 10.5t85.5 35t72 60t49 90t19.5 121.5v530z" />
<glyph unicode="&#xfa;" horiz-adv-x="1165" d="M885 1411l-230 -313h-127l199 313h158zM870 956h131v-956h-131v168q-27 -64 -85 -108t-120 -62t-126 -18q-176 0 -282 112t-105 307v557h131v-550q0 -136 75.5 -216.5t194.5 -80.5q47 0 91 10.5t85.5 35t72 60t49 90t19.5 121.5v530z" />
<glyph unicode="&#xfb;" horiz-adv-x="1165" d="M584 1311l-178 -213h-121l229 313h141l230 -313h-121zM870 956h131v-956h-131v168q-27 -64 -85 -108t-120 -62t-126 -18q-176 0 -282 112t-105 307v557h131v-550q0 -136 75.5 -216.5t194.5 -80.5q47 0 91 10.5t85.5 35t72 60t49 90t19.5 121.5v530z" />
<glyph unicode="&#xfc;" horiz-adv-x="1165" d="M410 1159q-40 0 -69.5 26.5t-29.5 65.5q0 41 29 68t70 27q42 0 71 -27t29 -68q0 -39 -29 -65.5t-71 -26.5zM756 1159q-40 0 -69.5 26.5t-29.5 65.5q0 41 29 68t70 27q42 0 71 -27t29 -68q0 -39 -29 -65.5t-71 -26.5zM870 956h131v-956h-131v168q-27 -64 -85 -108 t-120 -62t-126 -18q-176 0 -282 112t-105 307v557h131v-550q0 -136 75.5 -216.5t194.5 -80.5q47 0 91 10.5t85.5 35t72 60t49 90t19.5 121.5v530z" />
<glyph unicode="&#xfd;" horiz-adv-x="1019" d="M813 1411l-229 -313h-127l198 313h158zM842 956h141l-600 -1421h-139l196 477l-395 944h141l326 -782z" />
<glyph unicode="&#xfe;" d="M676 977q99 0 188.5 -37.5t154.5 -102t103.5 -158t38.5 -200.5q0 -142 -65 -257t-176 -178.5t-244 -63.5q-122 0 -225.5 55.5t-155.5 152.5v-653h-131v1960h131v-725q53 97 155.5 152t225.5 55zM666 104q153 0 259.5 109t106.5 268q0 157 -106.5 264t-259.5 107 q-96 0 -180 -45t-137.5 -133t-53.5 -199q0 -162 109 -266.5t262 -104.5z" />
<glyph unicode="&#xff;" horiz-adv-x="1019" d="M338 1159q-40 0 -69 26.5t-29 65.5q0 41 29 68t69 27q42 0 71 -27t29 -68q0 -39 -29 -65.5t-71 -26.5zM684 1159q-40 0 -69 26.5t-29 65.5q0 41 29 68t69 27q42 0 71 -27t29 -68q0 -39 -29 -65.5t-71 -26.5zM842 956h141l-600 -1421h-139l196 477l-395 944h141l326 -782z " />
<glyph unicode="&#x152;" horiz-adv-x="2334" d="M1534 127h692v-127h-827v287q-96 -142 -248 -224.5t-332 -82.5q-148 0 -280.5 57t-227 154t-150 230.5t-55.5 280.5q0 198 94 364.5t258 263.5t361 97q180 0 332 -82.5t248 -224.5v291h805v-127h-670v-528h586v-127h-586v-502zM819 106q160 0 293 80t209 217t76 299 t-76 299.5t-209 218t-293 80.5q-120 0 -227.5 -47.5t-184 -128t-121 -191t-44.5 -231.5t44.5 -231t121 -190t184 -127.5t227.5 -47.5z" />
<glyph unicode="&#x153;" horiz-adv-x="2017" d="M1927 481q0 -9 -1 -28.5t-1 -28.5h-823q15 -150 111.5 -235t244.5 -85q99 0 181.5 43t129.5 121l113 -49q-60 -113 -175 -176t-251 -63q-138 0 -250.5 65t-173.5 180q-64 -116 -179.5 -180.5t-254.5 -64.5q-136 0 -249.5 61t-182 177t-68.5 263t68.5 261.5t181.5 174.5 t250 60q139 0 254.5 -63.5t179.5 -178.5q61 115 173 178.5t251 63.5q206 0 338.5 -136t132.5 -360zM598 104q155 0 263 105.5t108 271.5q0 165 -108 268t-263 103q-156 0 -262.5 -103t-106.5 -268q0 -167 106.5 -272t262.5 -105zM1104 537h692q-13 147 -106.5 231t-233.5 84 q-144 0 -239 -82t-113 -233z" />
<glyph unicode="&#x178;" horiz-adv-x="1232" d="M440 1614q-40 0 -69 26.5t-29 65.5q0 41 28.5 67.5t69.5 26.5q42 0 71.5 -26.5t29.5 -67.5q0 -39 -29.5 -65.5t-71.5 -26.5zM786 1614q-40 0 -69 26.5t-29 65.5q0 41 28.5 67.5t69.5 26.5q42 0 71.5 -26.5t29.5 -67.5q0 -39 -29.5 -65.5t-71.5 -26.5zM1059 1411h162 l-539 -749v-662h-135v662l-531 749h160l440 -618z" />
<glyph unicode="&#x2c6;" horiz-adv-x="1030" d="M215 1120l229 314h142l229 -314h-121l-180 211l-178 -211h-121z" />
<glyph unicode="&#x2dc;" horiz-adv-x="915" d="M201 1161q4 101 49.5 152t109.5 51q41 0 77.5 -24t65 -48t50.5 -24q25 0 44.5 24t20.5 68h97q-6 -101 -52 -151t-110 -50q-32 0 -61.5 15t-48 33t-41.5 33t-42 15q-24 0 -43 -24t-20 -70h-96z" />
<glyph unicode="&#x2000;" horiz-adv-x="975" />
<glyph unicode="&#x2001;" horiz-adv-x="1950" />
<glyph unicode="&#x2002;" horiz-adv-x="975" />
<glyph unicode="&#x2003;" horiz-adv-x="1950" />
<glyph unicode="&#x2004;" horiz-adv-x="650" />
<glyph unicode="&#x2005;" horiz-adv-x="487" />
<glyph unicode="&#x2006;" horiz-adv-x="325" />
<glyph unicode="&#x2007;" horiz-adv-x="325" />
<glyph unicode="&#x2008;" horiz-adv-x="243" />
<glyph unicode="&#x2009;" horiz-adv-x="390" />
<glyph unicode="&#x200a;" horiz-adv-x="108" />
<glyph unicode="&#x2010;" horiz-adv-x="978" d="M145 408v127h689v-127h-689z" />
<glyph unicode="&#x2011;" horiz-adv-x="978" d="M145 408v127h689v-127h-689z" />
<glyph unicode="&#x2012;" horiz-adv-x="978" d="M145 408v127h689v-127h-689z" />
<glyph unicode="&#x2013;" horiz-adv-x="1208" d="M147 410v116h914v-116h-914z" />
<glyph unicode="&#x2014;" horiz-adv-x="1626" d="M147 410v116h1332v-116h-1332z" />
<glyph unicode="&#x2018;" horiz-adv-x="464" d="M125 895q-12 174 41 333t158 267l82 -29q-90 -127 -130.5 -264t-27.5 -307h-123z" />
<glyph unicode="&#x2019;" horiz-adv-x="464" d="M166 895l-82 29q89 127 130.5 264t29.5 307h121q12 -175 -40.5 -334t-158.5 -266z" />
<glyph unicode="&#x201a;" horiz-adv-x="444" d="M90 -295l-82 29q90 127 130.5 264t27.5 307h123q12 -174 -41 -333t-158 -267z" />
<glyph unicode="&#x201c;" horiz-adv-x="733" d="M125 895q-12 174 41 333t158 267l82 -29q-90 -127 -130.5 -264t-27.5 -307h-123zM393 895q-12 174 41 333t158 267l82 -29q-90 -127 -130.5 -264t-27.5 -307h-123z" />
<glyph unicode="&#x201d;" horiz-adv-x="733" d="M166 895l-82 29q89 127 130.5 264t29.5 307h121q12 -175 -40.5 -334t-158.5 -266zM434 895l-82 29q89 127 130.5 264t29.5 307h121q12 -175 -40.5 -334t-158.5 -266z" />
<glyph unicode="&#x201e;" horiz-adv-x="712" d="M90 -295l-82 29q90 127 130.5 264t27.5 307h123q12 -174 -41 -333t-158 -267zM358 -295l-82 29q90 127 130.5 264t27.5 307h123q12 -174 -41 -333t-158 -267z" />
<glyph unicode="&#x2022;" horiz-adv-x="890" d="M446 221q-115 0 -195.5 74.5t-80.5 187.5t80.5 187.5t195.5 74.5q116 0 196.5 -74.5t80.5 -187.5t-80.5 -187.5t-196.5 -74.5z" />
<glyph unicode="&#x2026;" horiz-adv-x="1341" d="M236 -20q-42 0 -72.5 28t-30.5 70q0 41 30.5 68.5t72.5 27.5q45 0 75.5 -27.5t30.5 -68.5q0 -42 -30.5 -70t-75.5 -28zM670 -20q-43 0 -73 28t-30 70q0 41 30 68.5t73 27.5t73.5 -27.5t30.5 -68.5q0 -42 -30.5 -70t-73.5 -28zM1104 -20q-43 0 -74 28t-31 70q0 41 31 68.5 t74 27.5t73.5 -27.5t30.5 -68.5q0 -42 -30.5 -70t-73.5 -28z" />
<glyph unicode="&#x202f;" horiz-adv-x="390" />
<glyph unicode="&#x2039;" horiz-adv-x="612" d="M381 53l-283 424l283 424h129l-283 -424l283 -424h-129z" />
<glyph unicode="&#x203a;" horiz-adv-x="612" d="M102 53l283 424l-283 424h129l283 -424l-283 -424h-129z" />
<glyph unicode="&#x205f;" horiz-adv-x="487" />
<glyph unicode="&#x20ac;" horiz-adv-x="1554" d="M1018 815v-88h-938v88h211q54 239 234.5 393t426.5 154q137 0 264 -53.5t226 -149.5l-86 -90q-84 79 -188.5 123.5t-215.5 44.5q-190 0 -334 -119t-192 -303h592zM952 106q112 0 216.5 44t187.5 124l86 -90q-98 -96 -225 -149t-265 -53q-246 0 -428 154t-235 394h-209v88 h938v-88h-592q47 -184 191 -304t335 -120z" />
<glyph unicode="&#x2122;" horiz-adv-x="1945" d="M72 1303v108h626v-108h-252v-738h-124v738h-250zM1798 565h-127l-74 619l-258 -529h-100l-256 527l-76 -617h-129l107 846h108l297 -620l295 620h109z" />
<glyph unicode="&#x25fc;" horiz-adv-x="952" d="M0 952h952v-952h-952v952z" />
</font>
</defs>
</svg>
